自分の蔵書

鋼殻のレギオス 仲間と恋愛の相手 



無字幕ver.
http://zoome.jp/bambooshadow/diary/30

アニメ=鋼殻のレギオス
MAD名=仲間と恋愛の相手
歌曲=你救哪一個(あなたは誰を救助します)
歌手=梁詠琪(Gigi Leung)
詞=黃偉文
曲=李健華

歌詞

<<隊長部分>>

若有天 我跟她一起跌下去
翻飛洶湧的浪潮裡
其中一位將被埋葬 怒海裡

就當 隨便問句
先被你抱住那是誰
不用答 明知猜對
像我這麼獨立 大概應該明白也許

她 比我需要得到你
比我需要捉緊你
別煩住你 沒人救我都不會溺死

當你只有一雙臂
總有一個抱不到你
就留下我 自己爭最後一口氣

<<菲麗部分>>

問到底 也許只可討個沒趣
都想早點失望回去
毋須跟她爭著和你 做一對

就似 仍十六歲
竟笨到會問這問題
不用答 明知猜對
像我這麼自量 大概應該明白也許

她 比我需要得到你
比我需要捉緊你
別煩住你 沒人救我都不會溺死

當你只有一雙臂
總有一個抱不到你
就留下我 自己爭最後一口氣

<<共同部分>>

共同:她
菲麗:比我需要得到你
妮娜:比我需要捉緊你
共同:在危難裡 問誰會記得跟我一起
菲麗:當你只有一雙臂
妮娜:總有一個被迫捨棄
菲麗:就留下我
妮娜:自己飄到岸邊喘氣

[画像1] [画像2] [画像3]

General
Format : AVI
Format/Info : Audio Video Interleave
File size : 118 MiB
Duration : 3mn 28s
Overall bit rate : 4 765 Kbps
Director : Format Factory
Writing application : Lavf52.25.0

Video
Format : AVC
Format/Info : Advanced Video Codec
Format profile : Baseline@L1.3
Format settings, CABAC : No
Format settings, ReFrames : 1 frame
Codec ID : H264
Duration : 3mn 27s
Bit rate : 4 633 Kbps
Nominal bit rate : 4 608 Kbps
Width : 1 280 pixels
Height : 720 pixels
Display aspect ratio : 16/9
Frame rate : 29.970 fps
Resolution : 24 bits
Colorimetry : 4:2:0
Scan type : Progressive
Bits/(Pixel*Frame) : 0.168
Stream size : 115 MiB (97%)
Writing library : x264 core 65
Encoding settings : cabac=0 / ref=1 / deblock=0:0:0 / analyse=0x1:0 / me=dia / subme=8 / psy_rd=1.0:0.0 / mixed_ref=0 / me_range=4 / chroma_me=0 / trellis=0 / 8x8dct=0 / cqm=0 / deadzone=21,11 / chroma_qp_offset=-2 / threads=2 / nr=0 / decimate=1 / mbaff=0 / bframes=0 / keyint=12 / keyint_min=7 / scenecut=0(pre) / rc=abr / bitrate=4608 / ratetol=0.9 / qcomp=0.50 / qpmin=2 / qpmax=31 / qpstep=3 / ip_ratio=1.25 / aq=1:1.00

Audio
Format : MPEG Audio
Format version : Version 1
Format profile : Layer 3
Codec ID : 55
Codec ID/Hint : MP3
Duration : 3mn 28s
Bit rate mode : Constant
Bit rate : 128 Kbps
Channel(s) : 2 channels
Sampling rate : 44.1 KHz
Resolution : 16 bits
Stream size : 3.18 MiB (3%)
Alignment : Aligned on interleaves
Interleave, duration : 26 ms (0.78 video frame)
Writing library : LAME3.98.2
EDIT[2009/03/29 03:38] 【竹WORKS】: 自作MADComment:0

灼眼のシャナ FREE WILL Ruppina 


アニメ=灼眼のシャナ
詞=Mai Kudo
曲=Fumio Yasuda

[画像1] [画像2] [画像3]

General
Format : MPEG-PS
File size : 119 MiB
Duration : 1mn 20s
Overall bit rate : 12.4 Mbps
Writing library : Photodex mpeg encoder

Video
ID : 224 (0xE0)
Format : MPEG Video
Format version : Version 2
Format profile : Main@High-1440
Format settings, Matrix : Default
Duration : 1mn 20s
Bit rate mode : Variable
Bit rate : 11.3 Mbps
Nominal bit rate : 12.0 Mbps
Width : 720 pixels
Height : 480 pixels
Display aspect ratio : 16/9
Frame rate : 59.940 fps
Standard : NTSC
Colorimetry : 4:2:0
Scan type : Progressive
Bits/(Pixel*Frame) : 0.548
Writing library : Photodex mpeg encoder

Audio
ID : 192 (0xC0)
Format : MPEG Audio
Format version : Version 1
Format profile : Layer 2
Duration : 1mn 20s
Bit rate mode : Constant
Bit rate : 224 Kbps
Channel(s) : 2 channels
Sampling rate : 48.0 KHz
Resolution : 16 bits
Video delay : -17ms
EDIT[2009/02/05 22:10] 【竹WORKS】: 自作MADComment:0
プロフィール
Author:タケ

タケ

Tartaros沉迷中
応援バナー
TVアニメ『シュタインズ・ゲート』
『神咒神威神楽』応援中!

戯画『 BALDR SKY dive2』応援バナー企画参加中!
Dies irae~Acta est Fabula~応援中!
『ハルカナソラ』 応援中です!
色に出でにけり わが恋は Cross of Venus 電撃学園RPG Cross of Venus SUPER SHOT -美少女ゲームリミックスコレクション‐
搜尋欄
カテゴリー
最近のコメント
  • 09 /06:tgtzhimse
  • 08 /29:タケ
  • 08 /24:
  • 03 /03:竹
  • 01 /12:Kim
  • 12 /08:小洛太
  • 05 /26:小洛太
TAGS

アスラクライン 鋼殻のレギオス Tears_to_Tiara 9S BALDR_SKY けいおん! けいおん! 戦場のヴァルキュリア 戦国BASARA Pandora_Hearts 11eyes 灼眼のシャナ さよならピアノソナタ 夜桜四重奏 宙のまにまに 祝福のカンパネラ Dragonica 逮捕しちゃうぞ ナイトウィザード とある魔術の禁書目録 BREAK_BLADE Myself;Yourself Tartaros よくわかる現代魔法 キノの旅 おおかみかくし アラド戦記 こもれびの国 ブギーポップは笑わない イリヤの空、UFOの夏 ELEMENT_HUNTERS 半分の月がのぼる空 CANAAN 空ノ鐘の響く惑星で 電撃学園RPG 東京マグニチュード8.0 乃木坂春香の秘密 とらドラ! 撲殺天使ドクロちゃん BALDRSKY デュラララ!! 少女革命ウテナ FAIRY_TAIL ヨスガノソラ シュタインズ・ゲート 化物語 Phantom C76 G線上の魔王 GROWLANSER すーぱーそに子 ソ・ラ・ノ・ヲ・ト Macross7 Fate/stay_night ミニスカ宇宙海賊 アクセル・ワールド DanceInTheVampireBund angela 喰霊-零- エレメントハンター ミナミノミナミノ Stein;Gate アリスと不思議な幻想世界 Dies_irae 銀月のソルトレージュ MacrossF 聖なるかな AKATSUKI−朱憑− WORKING!! 火目の巫女 OnePiece ダンタリアンの書架 同人音楽 NikQ 風の聖痕 テガミバチ とある科学の超電磁砲 蒼穹のカルマ ウェスタディアの双星 DUNGEON&FIGHTER TALES 電波的な彼女 魔法藥販局 黒の契約者 レイン 石田衣良作品 片理誠作品 剣の女王と烙印の仔 俺の妹がこんなに可愛いわけがない 蒼天航路 ValkyrieComplex Chaos;HEAd マクロス7 SCAR/EDGE Tales_of_Vesperia 瀨尾麻衣子作品 ロミオ×ジュリエット WarriorEpic 秒速5センチメートル ジャングル大帝 妖精鄉 グリモア 神様のメモ帳 とある飛空士への追憶 学園黙示録 鷲見ヶ原うぐいすの論証 空ろの箱と零のマリア マルドゥック・スクランブル 色に出でにけりわが恋は 無限のリンケージ 萌えゲーアワード 疾走する思春期のパラベラム SHOT_MUSIC アキハバラ電脳組 機巧少女は傷つかない 最終進化的少年 得能正太郎 BLACK_ROCK_SHOOTER 花咲くいろは 電波女と青春男 それがどうしたっ FRACTALE 森田季節 ビター・マイ・スウィート 夢喰いメリー WISH_ANGEL ライトノベルの楽しい書き方 GOSICK 装甲悪鬼村正 雪螳螂 サクラ大戦 ACGHK Dead_Fantasy TCG 喰霊 LOOPCUBE Sphere HaloLegends ECO 伝説の勇者の伝説 PROTOTYPE 学園革命伝ミツルギ RAINBOW Macross mimei 山本ヤマト Tales_of_Symphonia BB戦士 ANGEL+DIVE シュガーダーク 漂う書庫のヴェルテ・テラ グリモアリス 美少女戦士 愛天使伝説 GrandChase C74 Elsword 天織堂 Angel_Beats! S線上のテナ 

ブロとも申請フォーム